#TITLE:Bloody Tears;
#SUBTITLE:~Ganos original~ (IIDX Edition);
#ARTIST:DJ YOSHITAKA;
#TITLETRANSLIT:;
#SUBTITLETRANSLIT:;
#ARTISTTRANSLIT:;
#CREDIT:;
#BANNER:Bloody Tears [IIDX Edition].png;
#BACKGROUND:Bloody Tears [IIDX Edition]-bg.png;
#LYRICSPATH:;
#CDTITLE:GanosCD.png;
#MUSIC:Bloody Tears [IIDX Edition].mp3;
#OFFSET:-0.550;
#SAMPLESTART:38.329;
#SAMPLELENGTH:12.000;
#SELECTABLE:YES;
#BPMS:0.000=170.000,64.000=42.500,65.000=85.000,85.000=170.000,147.000=85.000,148.000=170.000,180.000=85.000,197.000=170.000;
#STOPS:195.750=0.700
;
#BGCHANGES:;
// cache tags:
#FIRSTBEAT:0.000;
#LASTBEAT:263.000;
#SONGFILENAME:Songs/Chilean Keyboard Megapack 3/(Ganos) Bloody Tears [IIDX Edition]/Bloody Tears [IIDX Edition].sm;
#HASMUSIC:1;
#HASBANNER:1;
#MUSICLENGTH:109.795;
// end cache tags

//---------------dance-single - ----------------
#NOTES:
     dance-single:
     :
     Challenge:
     13:
     1.000,1.000,1.000,0.091,0.938,623.000,271.000,10.000,0.000,1.000:
1001
1000
1000
1000
,
1000
0001
1000
0001
1000
0001
1000
0011
,
1100
0100
0100
0100
,
0100
0010
0100
0010
0100
0010
0100
0010
,
1100
1100
1100
1100
,
1100
0110
1100
0110
1100
0110
1100
0110
,
1001
1001
1001
1001
,
1000
0000
0000
0200
0300
0000
1000
0000
0000
0200
0300
0000
1000
0000
0000
0200
0300
0000
1000
0000
0000
0200
0300
0000
,
1001
0000
1100
0110
0011
0000
0011
0110
,
1100
0001
1100
0110
0101
1000
0101
0110
,
1100
0000
0110
1010
1100
0000
1100
1010
,
0110
1000
0101
0110
1010
1010
0110
0101
,
1001
0000
0000
0000
1100
0001
1000
0000
1100
0001
1000
0000
0011
1000
0001
0000
,
0011
0000
1100
0000
0110
1000
0001
0000
0110
1000
0001
0000
1001
0100
0010
0000
,
1001
1001
1001
1001
0011
0011
0011
0011
,
0011
0000
0000
1000
0000
0000
0001
0000
0000
1000
0000
0000
0001
0000
0000
1000
0000
0000
0001
0000
0000
1000
0000
0000
0001
0000
1000
0000
0001
0000
1000
0000
0001
0000
1000
0000
0002
0000
0000
0000
0000
0000
0000
0000
0000
0000
0000
0000
,
0003
0000
0000
0000
1100
0001
1000
0001
0100
0001
1000
0001
0100
0001
1000
0001
,
0100
0001
1000
0011
1100
0010
1000
0010
0100
0010
1000
0010
0101
1000
0010
1000
,
0110
0000
0001
0000
0110
0000
1000
0000
0110
0000
1000
0000
0100
0000
0010
0000
0001
0000
1000
0001
1000
0000
0010
0000
0100
0000
0001
0000
0010
0000
0100
0000
,
0010
0000
0001
1000
0001
0000
0110
0000
1001
0000
0000
0000
0000
0000
0110
0000
1001
0000
0000
0000
0000
0000
0110
0000
1001
0000
0000
0000
1001
0000
0000
0000
,
1001
0000
1001
0000
1001
0000
1001
0000
1001
0000
0100
0010
0100
0000
0100
0001
0000
0001
0100
0010
1000
0001
0000
0001
1000
0001
1000
0001
1000
0001
1000
0001
,
0100
0010
0100
0010
0000
0000
0001
1000
0011
0000
0000
0000
0001
0000
1000
0000
0000
0000
0000
0000
0100
0000
0000
0000
0010
0000
0000
0000
0001
0000
0000
0000
,
0100
0000
0010
0000
1100
0000
0000
0001
0000
0000
1000
0010
1000
0001
1000
0100
,
1001
0000
0011
0000
1100
0000
0100
0010
0000
0000
0001
0010
0001
1000
0001
0100
,
0001
0010
0100
1000
0011
0000
0000
1000
0000
0000
0010
0100
0010
0000
0000
0000
,
1001
0000
1001
0000
1100
0000
0010
0001
0000
0000
0100
0010
0100
1000
0100
0001
,
0010
0100
1000
0100
0011
0000
0000
0001
0000
0000
0010
0100
1000
0100
0010
0100
,
1001
0000
1001
0000
0110
0000
1000
0001
0000
0000
1000
0100
0010
0001
0010
0100
,
1000
0001
0100
0010
1001
0000
0000
0001
0000
0000
0100
0010
0100
0000
0001
0000
,
1000
0000
0101
0000
0011
0000
0000
1100
0000
0000
0011
0000
0101
0000
0000
1010
,
0000
0000
1100
0000
1001
0000
0000
1100
0000
0000
0011
0000
1000
0001
1000
0001
,
0100
0010
0100
0010
1100
0000
0011
0011
0000
0000
1100
0000
0011
0000
1010
1010
,
0000
0000
1001
0000
0110
0000
0101
0101
0000
0000
1001
0100
0010
0000
0001
0000
,
0010
0100
0000
0000
1100
0000
0000
0011
0000
0000
1100
0000
0110
0000
0000
0011
,
0000
0000
0101
0000
0110
0000
0000
1010
0000
0000
0101
0000
1000
0001
1000
0001
,
0010
0100
0010
0100
1001
0000
1100
1100
0000
0000
0110
0000
0011
0000
0101
0101
,
0000
0000
0000
0000
1010
0000
0000
0000
1001
0000
0000
0000
0110
0000
0110
0000
0000
0000
0000
0000
0010
0000
0100
0000
1001
0000
0100
0000
0010
0001
0000
0000
,
1001
0010
1001
0100
1001
0010
1001
0100
,
1001
0110
1100
0101
0011
0110
1100
0011
,
1100
0010
1100
0001
1100
0010
1100
0001
,
1100
0011
0110
0101
0110
1010
0110
1001
,
0101
0010
0101
1000
0101
0010
0101
1000
,
0101
0110
1010
1100
1001
0011
0110
1001
,
1010
1010
1010
1010
1010
1010
1010
1010
,
1010
0000
0000
0101
0000
0000
1010
0000
0000
0101
0000
0000
1010
0000
0000
0101
0000
0000
1010
0000
0000
0101
0000
0000
1010
0000
0101
0000
1010
0000
0101
0000
1010
0000
0101
0000
2020
0000
0000
0000
0000
0000
0000
0000
0000
0000
0000
0000
,
3031
0000
1000
0000
0010
0000
0100
0000
1001
0000
0100
0000
0010
0000
0001
0010
,
0200
0000
1300
0000
,
1001
0100
0010
0001
0100
0010
1000
0001
1100
0010
0001
0010
0100
1000
0100
0010
,
0002
0000
0000
0000
0000
0000
1000
1000
0103
0100
0010
0010
0001
0001
1000
1000
,
0000
0000
0000
0000
0000
0000
1000
0100
0011
0000
0000
0000
1000
0000
0100
0000
0000
0000
0000
0000
0010
0000
0000
0000
0001
0000
0000
0000
0100
0000
0000
0000
,
0010
0000
1000
0000
0011
0000
0000
0100
0000
0100
0010
1000
0010
0100
0001
1000
,
0011
0000
0110
0000
1100
0000
0001
0100
0000
0010
1000
0010
1000
0001
0100
0001
,
0100
0010
1000
0100
0011
0000
0000
0011
0000
0000
1000
0001
0110
0000
0000
0110
,
0000
0000
1000
0001
1100
0000
0010
0001
0000
1000
0010
0100
0010
1000
0100
0010
,
0001
0010
0100
1000
0011
0000
0000
0011
0000
0000
1000
0001
0010
0100
1000
0001
,
0110
0000
1001
0000
0110
0000
0010
1000
0000
1000
0100
0010
0100
1000
0010
0100
,
0001
0100
0010
1000
0011
0000
0000
0011
0000
1000
0001
1000
0011
0000
1100
0000
,
0101
0000
1010
0000
0110
0000
0000
0101
0000
0000
1010
0000
1100
0000
0000
1001
,
0000
0000
0011
0000
1100
0000
0000
0110
0000
0000
0011
0000
1010
0001
0100
0010
,
1000
0100
0010
0100
1001
0000
0110
0110
0000
0000
1100
0000
1001
0000
0011
0011
,
0000
0000
1100
0000
0101
0000
0110
0110
0000
0000
1010
0100
1001
0000
1001
0000
,
0011
0011
0000
0000
1100
0000
0000
0011
0000
0000
0110
0000
1010
0000
0000
0101
,
0000
0000
0110
0000
1001
0000
0000
1100
0000
0000
0011
0000
1001
0100
0010
1000
,
0100
0010
0001
0100
1010
0000
1001
1001
0000
0000
1100
0000
1010
0000
0011
0011
,
0000
0000
1100
0000
1010
0000
0101
0101
0000
0000
1100
0011
1100
0000
1000
0000
,
0001
0200
0000
0000
0000
0000
0000
0000
0000
0000
0000
0000
0300
0000
0000
0000
;
